当前位置: 首页 >> 无损专辑 >> 达明一派2000-花天走地[香港][WAV整轨][网盘下载] >> 正文

达明一派2000-花天走地[香港][WAV整轨][网盘下载]

5个月前 (01-02)     作者:往日歌     分类:无损专辑     阅读次数:123     评论(0)    

 达明一派2000-花天走地[香港][WAV整轨][网盘下载] 无损专辑

REM GENRE POP
REM DATE 2000
PERFORMER "蔡琴&黄耀明"
TITLE "花天走地"
FILE "蔡琴&黄耀明.-.[花天走地](2000)[WAV].wav" WAVE
TRACK 01 AUDIO
TITLE "花天走地 "
PERFORMER "蔡琴&黄耀明"
INDEX 01 00:00:00
TRACK 02 AUDIO
TITLE "第一次青春"
PERFORMER "蔡琴&黄耀明"
INDEX 00 04:15:36
INDEX 01 04:15:37
TRACK 03 AUDIO
TITLE "美丽在心头"
PERFORMER "蔡琴&黄耀明"
INDEX 00 08:42:74
INDEX 01 08:43:00
TRACK 04 AUDIO
TITLE "花天走地(Magic carpet mix)"
PERFORMER "蔡琴&黄耀明"
INDEX 00 10:58:49
INDEX 01 10:58:50
TRACK 05 AUDIO
TITLE "花天走地(走的走来的来)"
PERFORMER "蔡琴&黄耀明"
INDEX 01 15:04:12
TRACK 06 AUDIO
TITLE "美丽在心头(还有然后还有)"
PERFORMER "蔡琴&黄耀明"
INDEX 00 18:40:24
INDEX 01 18:40:25
TRACK 07 AUDIO
TITLE "回忆在说谎"
PERFORMER "蔡琴&黄耀明"
INDEX 00 22:31:24
INDEX 01 22:31:25
TRACK 08 AUDIO
TITLE "一边看一边走"
PERFORMER "蔡琴&黄耀明"
INDEX 00 27:17:24
INDEX 01 27:17:25
TRACK 09 AUDIO
TITLE "失重回忆"
PERFORMER "蔡琴&黄耀明"
INDEX 00 32:34:36
INDEX 01 32:34:37
TRACK 10 AUDIO
TITLE "微笑的理由"
PERFORMER "蔡琴&黄耀明"
INDEX 00 37:49:49
INDEX 01 37:49:50
TRACK 11 AUDIO
TITLE "狭路相逢"
PERFORMER "蔡琴&黄耀明"
INDEX 00 39:39:49
INDEX 01 39:39:50
TRACK 12 AUDIO
TITLE "彼岸"
PERFORMER "蔡琴&黄耀明"
INDEX 00 43:59:49
INDEX 01 43:59:50
TRACK 13 AUDIO
TITLE "花天走地(呼吸的回响)"
PERFORMER "蔡琴&黄耀明"
INDEX 01 45:37:37
TRACK 14 AUDIO
TITLE "然后还有然后"
PERFORMER "蔡琴&黄耀明"
INDEX 00 51:50:49
INDEX 01 51:50:50
TRACK 15 AUDIO
TITLE "我的海市蜃楼"
PERFORMER "蔡琴&黄耀明"
INDEX 01 53:17:37
下载地址:达明一派2000-花天走地[香港][WAV整轨].rar: https://u167219.pipipan.com/fs/167219-232123600

除非特别注明,本文『达明一派2000-花天走地[香港][WAV整轨][网盘下载]』来源于互联网、微信平台、QQ空间以及其它朋友推荐等,非本站作者原创。 本站作者往日歌不对本文拥有版权,如有侵犯,请投诉。我们会在72小时内删除。 转载时请标明出处:“本文转载于『往日歌无损音乐』,原文地址:http://www.wrgdj.com/post/5802.html

评论

发表评论   

昵称*

E-mail*(建议输入,以便收到博主回复的提示邮件)

网站