当前位置: 首页 >> 无损专辑 >> 达明一派2000-光天化日[签名版][WAV整轨][网盘下载] >> 正文

达明一派2000-光天化日[签名版][WAV整轨][网盘下载]

11个月前 (01-02)     作者:往日歌无损音乐     分类:无损专辑     阅读次数:420     评论(0)     收藏

达明一派2000-光天化日[签名版][WAV整轨]

REM DATE 2000
REM DISCID 8209CF0A
REM COMMENT ExactAudioCopy v0.99pb4
PERFORMER "黄耀明"
TITLE "光天化日 [签名版]"
FILE "黄耀明.-.[光天化日](2000)[WAV].wav" WAVE
  TRACK 01 AUDIO
    TITLE "下一站天国"
    INDEX 01 00:00:00
  TRACK 02 AUDIO
    TITLE "填充"
    INDEX 00 04:54:27
    INDEX 01 04:57:15
  TRACK 03 AUDIO
    TITLE "我这么容易爱人"
    INDEX 00 08:03:62
    INDEX 01 08:05:15
  TRACK 04 AUDIO
    TITLE "迷恋荷尔蒙"
    INDEX 00 11:46:00
    INDEX 01 11:48:47
  TRACK 05 AUDIO
    TITLE "漩涡(GTR Mix)"
    PERFORMER "黄耀明&彭羚"
    INDEX 01 15:24:42
  TRACK 06 AUDIO
    TITLE "爱的教育"
    INDEX 00 19:27:32
    INDEX 01 19:32:32
  TRACK 07 AUDIO
    TITLE "罅隙"
    INDEX 00 25:03:70
    INDEX 01 25:06:45
  TRACK 08 AUDIO
    TITLE "心头好"
    INDEX 00 29:38:15
    INDEX 01 29:39:25
  TRACK 09 AUDIO
    TITLE "光天化日"
    INDEX 00 33:47:20
    INDEX 01 33:51:17
  TRACK 10 AUDIO
    TITLE "深蓝色"
    INDEX 00 37:54:17
    INDEX 01 37:58:05
下载地址:达明一派2000-光天化日[签名版][WAV整轨].rar: https://u167219.pipipan.com/fs/167219-232123597

除非特别注明,本文无损音乐『达明一派2000-光天化日[签名版][WAV整轨][网盘下载]』来源于互联网、微信平台、QQ空间以及其它朋友推荐等,非本站作者原创。 本站作者往日歌无损音乐不对本文无损音乐拥有版权,如有侵犯,请投诉。我们会在72小时内删除。 转载时请标明出处:“本文无损音乐转载于『往日歌无损音乐』,原文地址:https://www.wrgdj.com/post/5809.html

    首先感谢各位网友对往日歌的关注和支持,有您们的支持,往日歌才能发展到现在。往日歌一直致力打造最新最全的无损音乐分享下载网站,同时为了往日歌更好的发展,后续也会分享更多的无损音乐,希望能够帮助大家。

    往日歌分享的大部分无损音乐经过团队严格测试,请大家放心使用。如果您喜欢或支持往日歌可以扫描下方二维码来赞助我们....

往日歌无损音乐

评论

发表评论   

昵称*

E-mail*(建议输入,以便收到博主回复的提示邮件)

网站